#TITLE:Selfish Love;
#SUBTITLE:;
#ARTIST:LEXY;
#TITLETRANSLIT:;
#SUBTITLETRANSLIT:;
#ARTISTTRANSLIT:;
#CREDIT:;
#BANNER:Selfish Love_logo.jpg;
#BACKGROUND:Selfish Love_bg.jpg;
#LYRICSPATH:;
#CDTITLE:Lan.png;
#MUSIC:Selfish Love.mp3;
#OFFSET:-0.020;
#SAMPLESTART:100.000;
#SAMPLELENGTH:12.000;
#SELECTABLE:YES;
#BPMS:0.000=119.980;
#STOPS:;
#BGCHANGES:;
// cache tags:
#FIRSTBEAT:4.000;
#LASTBEAT:301.750;
#SONGFILENAME:Songs/lan sky/Selfish Love/Selfish Love.sm;
#HASMUSIC:1;
#HASBANNER:1;
#MUSICLENGTH:151.709;
// end cache tags

//---------------dance-single - sky----------------
#NOTES:
     dance-single:
     sky:
     Hard:
     9:
     0.968,0.970,1.000,0.178,0.817,757.000,243.000,27.000,0.000,12.000:

0000
0000
0000
0000
,
0001
0010
0100
1000
0000
0010
0000
0100
0000
0010
0000
0001
0100
0000
0010
0000
,
1000
0100
0010
0001
0000
0100
0000
0010
0000
1000
0000
0100
0001
0000
0010
0000
,
0001
0010
0100
1000
0000
0010
0000
0100
0000
0001
0000
0010
0100
1000
0010
0000
,
0100
0000
0000
0001
0000
0010
0100
0000
1000
0000
0000
0010
0000
0000
0000
0000
,
2001
0010
0100
0001
0000
0010
0000
0001
0000
0100
0000
0010
0001
0000
0010
3000
,
0102
0010
0100
1000
0000
0100
0000
0010
0000
1000
0000
0100
1000
0000
0010
0003
,
1020
0100
0001
1000
0000
0100
0000
1000
0000
0001
0000
0100
0001
0100
1000
0030
,
2001
0000
0000
0100
0000
0010
0001
0000
0100
0000
0000
0001
0000
0000
0010
3000
,
0101
0010
0100
1000
0011
0100
1001
0010
1100
0001
0000
0010
0101
0000
0010
0000
,
1001
0100
0010
0001
1100
0010
0101
0010
1001
0100
0000
0010
1100
0000
0001
0000
,
1010
0100
0010
0001
1010
0100
1001
0010
1100
0001
0000
0100
0011
0100
1000
0000
,
0101
0000
0000
0010
1100
0010
0101
0000
1010
0000
0000
0001
1100
0000
0010
0000
,
1001
0000
0100
0010
0101
0010
1100
0000
0011
0000
0100
0010
1100
0000
0010
0000
,
1001
0000
0010
0100
1001
0100
0011
0000
1100
0000
0010
0100
1001
0000
0100
0010
,
1001
0000
0010
0100
0011
0100
1010
0000
0101
0000
1000
0010
1100
0000
0001
0000
,
0110
0000
1000
0100
0011
0100
1010
0000
0101
0010
1100
0010
0101
0010
1001
0100
,
0011
0000
0100
0001
1010
0000
0101
0010
1000
0000
0100
0010
1001
0000
0010
0100
,
0011
0000
0100
0010
1001
0000
0011
0100
1000
0000
0101
0010
1000
0000
0100
0001
,
1000
0000
0010
0100
1001
0000
1010
0100
0001
0000
0001
0010
1100
0000
0010
0100
,
0011
0000
0100
0010
1100
0000
0101
0010
1000
0000
0100
0010
0101
0000
0010
0001
,
1100
0000
0010
0100
1001
0000
1010
0100
0001
0000
0010
0100
0011
0000
0100
0010
,
1100
0000
0001
0010
0101
0000
1001
0100
0011
0000
0100
0010
1100
0000
0010
0100
,
1001
0000
0010
0100
0011
0000
1010
0100
1001
0000
0001
0010
1100
0000
0100
0010
,
0101
0000
0010
0100
1001
0000
0101
0010
1100
0000
1010
0100
0010
0001
0010
0100
,
1002
0000
0000
0000
0010
0000
0100
0000
1010
0000
0000
0003
0100
0000
0000
0000
,
0201
0000
0000
0000
1000
0000
0010
0000
1001
0000
0000
0300
0011
0000
0000
0000
,
2001
0000
0000
0000
0010
0000
0100
0000
0011
0000
0000
3000
0100
0000
0000
0000
,
1020
0000
0000
0000
0100
0000
0001
0000
1100
0000
0000
0030
0001
0000
0000
0000
,
2001
0000
0000
0000
0100
0000
0010
0000
0101
0000
0000
3000
0010
0000
0000
0000
,
0201
0000
0000
0000
0010
0000
0001
0000
1010
0000
0000
0300
0001
0000
0000
0000
,
1020
0000
0000
0000
0001
0000
0100
0030
1001
0000
0000
0000
0101
0000
0000
0000
,
2010
0000
0100
0000
0010
0001
0000
0010
0000
0000
0100
0000
0011
0000
0100
3010
,
0101
0010
1100
0201
0010
0000
1300
0000
,
0011
0100
1010
0102
0010
0000
0103
0000
,
1010
0100
0011
2001
0100
0000
3010
0000
,
1101
0010
0101
1010
0110
0001
1100
0010
,
0101
0000
0010
0000
1001
0000
1020
0000
0100
0000
0000
0030
0001
0000
0000
0000
,
1010
0100
0011
1200
0010
0000
0301
0000
,
1010
0000
0100
0011
1100
0000
0010
0100
,
0011
0000
0000
0000
0100
0000
1010
0000
0101
0000
0010
0000
1100
0001
0000
0000
,
1020
0000
0000
0100
0000
0000
0001
0030
0100
0000
1000
0000
0010
0000
0000
0000
,
1001
0000
0100
0001
1010
0000
0101
0010
1000
0000
0100
0010
1001
0000
0010
0100
,
0011
0000
0100
0010
1001
0000
0011
0100
1000
0000
0101
0010
1000
0000
0100
0001
,
1000
0000
0010
0100
1001
0000
1010
0100
0001
0000
0001
0010
1100
0000
0010
0100
,
0011
0000
0100
0010
1100
0000
0101
0010
1000
0000
0100
0010
0101
0000
0010
0001
,
1100
0000
0010
0100
1001
0000
1010
0100
0001
0000
0010
0100
0011
0000
0100
0010
,
1100
0000
0001
0010
0101
0000
1001
0100
0011
0000
0100
0010
1100
0000
0010
0100
,
1001
0000
0010
0100
0011
0000
1010
0100
1001
0000
0001
0010
1100
0000
0100
0010
,
0101
0000
0010
0100
1001
0000
0101
0010
1100
0000
1010
0100
0010
0001
0010
0100
,
1010
1010
1010
1010
0101
0101
0101
0101
,
2001
0000
0000
0000
0010
0000
0100
3000
0001
0010
0100
1000
0100
0010
0001
0100
,
0011
0000
1000
0010
1100
0000
0101
0010
0001
0000
0010
0100
1001
0000
1000
0100
,
0011
0000
0100
0010
1100
0000
0101
0010
1000
0000
0001
0010
1100
0000
0010
0100
,
0011
0000
1000
0100
1010
0000
0001
0010
1100
0000
0010
0100
0011
0000
0100
0010
,
1002
0000
0000
0000
0010
0000
0100
0003
1000
0100
0010
0001
0010
0100
1000
0010
,
0201
0000
0000
0000
0010
0000
1000
0300
0001
0010
0100
1000
0000
0000
0100
0010
,
1001
0000
0010
0100
0011
0000
1010
0100
0010
0000
0001
0100
1010
0000
0100
0010
,
0101
0000
0000
0000
1010
0000
0100
0000
1001
0010
0100
0010
0101
0010
1000
0000
,
0000
0000
0000
0000
0000
0000
0000
0000
1001
0000
0100
0001
1010
0000
0101
0010
,
1000
0000
0100
0010
1001
0000
0010
0100
0011
0000
0100
0010
1001
0000
0011
0100
,
1000
0000
0101
0010
1000
0000
0100
0001
1000
0000
0010
0100
1001
0000
1010
0100
,
0001
0000
0001
0010
1100
0000
0010
0100
0011
0000
0100
0010
1100
0000
0101
0010
,
1000
0000
0100
0010
0101
0000
0010
0001
1100
0000
0010
0100
1001
0000
1010
0100
,
0001
0000
0010
0100
0011
0000
0100
0010
1100
0000
0001
0010
0101
0000
1001
0100
,
0011
0000
0100
0010
1100
0000
0010
0100
1001
0000
0010
0100
0011
0000
1010
0100
,
1001
0000
0001
0010
1100
0000
0100
0010
0101
0000
0010
0100
1001
0000
0101
0010
,
1100
0000
0010
0100
0010
0001
1010
0100
0012
0000
0100
0000
1010
0000
0100
0010
,
1000
0000
0100
0010
1000
0000
0010
0100
0010
0000
0100
0010
1000
0000
0010
0103
,
1000
0000
0101
0010
1000
0000
0100
0001
2000
0000
0010
0100
0001
0000
0010
0100
,
0010
0000
3001
0010
0101
0000
0010
0100
0011
0000
0100
0010
1100
0000
0101
0010
,
1000
0000
0100
0010
0101
0000
0010
0001
0200
0000
0010
0001
0010
0000
0010
1300
,
0001
0000
0010
0100
0011
0000
0100
0010
0102
0000
1000
0010
0100
0000
1000
0103
,
0020
0000
0100
0001
1100
0000
0001
0130
1000
0000
0010
0100
0011
0000
1010
0100
,
2001
0000
0001
0010
0100
0000
0100
0010
0101
0000
0010
0100
0001
0000
0101
3010
,
1100
0000
1010
0100
0010
0001
0010
0100
0000
0000
0000
0000
0000
0000
0000
0000
;
